Este sitio es propiedad de cookies de terceros.
Si usted continúa con nosotros, entendemos que acepta nuestro uso de cookies.

  • Este sitio usa cookies. Para continuar usando este sitio, debes aceptar nuestro uso de cookies. Más información.
Home

Donde esta vuplus kodi?

galager

Usuario
Amigo OpenSPA
Forero
#1
Hola Pues eso lo he desistalado porque se oyen las pelis de kbagi pero no se veían, y ahora no se de donde descargarlo.
No está en plugins boton verde extensiones..
Tengo openspa 6

Cuál es el problema??
 

panzurrano

Félix Cano "El Antenista"
Fan de OpenSPA
#2
Actualiza a la última versión. Ya vamos por la 7.2.009.
En esta seguro que está en plugins-botón verde-extensiones.
 

panzurrano

Félix Cano "El Antenista"
Fan de OpenSPA
#7
Eso es problema del codec h.265. Eso me pasa a mi también en mi vu+Solo2. Tienes que buscar la peli que no tenga ese codec. Es una pena pero es así.
 

galager

Usuario
Amigo OpenSPA
Forero
#8
Eso es problema del codec h.265. Eso me pasa a mi también en mi vu+Solo2. Tienes que buscar la peli que no tenga ese codec. Es una pena pero es así.
Pero es que me pasa en casi todas las pelis de ....hasta hace no mucho no me pasaba....o no tenían ese codec. Y no se le puede instalar?
 
Última edición:

panzurrano

Félix Cano "El Antenista"
Fan de OpenSPA
#9
Que yo sepa no se puede. Eso mismo pregunté yo en su momento y me dijeron que no que se podía. De todas formas haber si alguien mas entendido nos puede sacar de dudas.
 

darkmantk

OpenSpa Team
Miembro del equipo
#10
El problema es que los receptores no tienen la potencia suficiente para poder repoducir estos videos por decodificación por software por ejemplo usando ffmpeg, y claro la solución es que decodifique por hardware y eso tiene que venir implementado en la CPU como pasa en los decos 4K y los procesadores BCM76325 por ejemplo.

Para que lo entiendas te pongo unos datos de unas pruebas grabando un canal e intentando reproducirlo con el ffmpeg.

HD51 test DVB T2 1920x1080
/frame= 250 fps=9.5 q=-1.0 Lsize= 553kB time=00:00:10.00 bitrate= 452.6kbits/s dup=41 drop=0 speed=0.379x

VU+ Solo4K (while watching TV): BBC1 1920 x 1080
frame= 190 fps= 10 q=-1.0 Lsize= 467kB time=00:00:07.48 bitrate= 511.6kbits/s dup=54 drop=0 speed=0.394x

Octagon SF4008 (in standby): BBC1 1920 x 1080
frame= 211 fps=8.5 q=-1.0 Lsize= 585kB time=00:00:08.32 bitrate= 576.4kbits/s dup=47 drop=0 speed=0.333x

Quad 4K
frame= 250 fps= 11 q=-1.0 Lsize= 567kB time=00:00:10.00 bitrate= 464.4kbits/s dup=50 drop=0 speed=0.442x

UE 4K
frame= 250 fps= 13 q=-1.0 Lsize= 572kB time=00:00:10.00 bitrate= 468.1kbits/s dup=28 drop=0 speed=0.529x

Fijate especialmente en el tema de los frames por segundo (fps) que son una ridiculez como para poder reproducir con fluidez un video en un deco con ffmpeg por software.
 

galager

Usuario
Amigo OpenSPA
Forero
#11
El problema es que los receptores no tienen la potencia suficiente para poder repoducir estos videos por decodificación por software por ejemplo usando ffmpeg, y claro la solución es que decodifique por hardware y eso tiene que venir implementado en la CPU como pasa en los decos 4K y los procesadores BCM76325 por ejemplo.

Para que lo entiendas te pongo unos datos de unas pruebas grabando un canal e intentando reproducirlo con el ffmpeg.

HD51 test DVB T2 1920x1080
/frame= 250 fps=9.5 q=-1.0 Lsize= 553kB time=00:00:10.00 bitrate= 452.6kbits/s dup=41 drop=0 speed=0.379x

VU+ Solo4K (while watching TV): BBC1 1920 x 1080
frame= 190 fps= 10 q=-1.0 Lsize= 467kB time=00:00:07.48 bitrate= 511.6kbits/s dup=54 drop=0 speed=0.394x

Octagon SF4008 (in standby): BBC1 1920 x 1080
frame= 211 fps=8.5 q=-1.0 Lsize= 585kB time=00:00:08.32 bitrate= 576.4kbits/s dup=47 drop=0 speed=0.333x

Quad 4K
frame= 250 fps= 11 q=-1.0 Lsize= 567kB time=00:00:10.00 bitrate= 464.4kbits/s dup=50 drop=0 speed=0.442x

UE 4K
frame= 250 fps= 13 q=-1.0 Lsize= 572kB time=00:00:10.00 bitrate= 468.1kbits/s dup=28 drop=0 speed=0.529x

Fijate especialmente en el tema de los frames por segundo (fps) que son una ridiculez como para poder reproducir con fluidez un video en un deco con ffmpeg por software.
Gracias por la explicación. Un saludo.